<?xml version="1.0" standalone="no"?>
<!DOCTYPE svg PUBLIC "-//W3C//DTD SVG 1.1//EN" "http://www.w3.org/Graphics/SVG/1.1/DTD/svg11.dtd" >
<svg xmlns="http://www.w3.org/2000/svg">
<metadata>
Created by FontForge 20120731 at Fri Apr 21 17:44:02 2017
 By admin
</metadata>
<defs>
<font id="aticon" horiz-adv-x="1024" >
  <font-face 
    font-family="aticon"
    font-weight="500"
    font-stretch="normal"
    units-per-em="1024"
    panose-1="2 0 6 3 0 0 0 0 0 0"
    ascent="896"
    descent="-128"
    x-height="792"
    bbox="-0.645162 -128.24 1077 896.8"
    underline-thickness="0"
    underline-position="0"
    unicode-range="U+0078-E6C2"
  />
<missing-glyph 
 />
    <glyph glyph-name=".notdef" 
 />
    <glyph glyph-name=".notdef" 
 />
    <glyph glyph-name=".null" horiz-adv-x="0" 
 />
    <glyph glyph-name="nonmarkingreturn" horiz-adv-x="341" 
 />
    <glyph glyph-name="x" unicode="x" horiz-adv-x="1001" 
d="M281 543q-27 -1 -53 -1h-83q-18 0 -36.5 -6t-32.5 -18.5t-23 -32t-9 -45.5v-76h912v41q0 16 -0.5 30t-0.5 18q0 13 -5 29t-17 29.5t-31.5 22.5t-49.5 9h-133v-97h-438v97zM955 310v-52q0 -23 0.5 -52t0.5 -58t-10.5 -47.5t-26 -30t-33 -16t-31.5 -4.5q-14 -1 -29.5 -0.5
t-29.5 0.5h-32l-45 128h-439l-44 -128h-29h-34q-20 0 -45 1q-25 0 -41 9.5t-25.5 23t-13.5 29.5t-4 30v167h911zM163 247q-12 0 -21 -8.5t-9 -21.5t9 -21.5t21 -8.5q13 0 22 8.5t9 21.5t-9 21.5t-22 8.5zM316 123q-8 -26 -14 -48q-5 -19 -10.5 -37t-7.5 -25t-3 -15t1 -14.5
t9.5 -10.5t21.5 -4h37h67h81h80h64h36q23 0 34 12t2 38q-5 13 -9.5 30.5t-9.5 34.5q-5 19 -11 39h-368zM336 498v228q0 11 2.5 23t10 21.5t20.5 15.5t34 6h188q31 0 51.5 -14.5t20.5 -52.5v-227h-327z" />
    <glyph glyph-name="arrow-up" unicode="&#xe667;" 
d="M538 885q-11 11 -26 11t-25 -11l-476 -475q-11 -11 -11 -26t11 -26q10 -10 25 -10v0h1q14 0 25 10l414 415v-865q0 -15 10.5 -25.5t25.5 -10.5h1q14 0 24.5 10.5t10.5 25.5v0v865l415 -415q10 -10 25 -10t25.5 10.5t10.5 25.5t-10 26l-476 475v0z" />
    <glyph glyph-name="battery" unicode="&#xe668;" 
d="M36 13h764q15 0 25.5 10.5t10.5 26.5v155h152q15 0 25.5 11t10.5 26v268q0 16 -10.5 26.5t-25.5 10.5h-152v153q0 16 -10.5 26.5t-25.5 10.5h-764q-15 0 -25.5 -10.5t-10.5 -26.5v-650q0 -15 11 -26t25 -11zM836 473h116v-195h-116v195zM386 595q-15 0 -25.5 -10.5
t-10.5 -26.5v-371q0 -15 10.5 -25.5t25.5 -10.5t25.5 10.5t10.5 25.5v371q0 16 -10.5 26.5t-25.5 10.5zM211 595q-15 0 -25.5 -10.5t-10.5 -26.5v-371q0 -15 10.5 -25.5t26 -10.5t26 10.5t10.5 25.5v371q0 16 -11 26.5t-26 10.5zM72 664h692v-577h-692v577z" />
    <glyph glyph-name="bookmark" unicode="&#xe669;" 
d="M309 -117l212 214l212 -214q10 -11 25 -11q7 0 14 3q22 8 22 33v952q0 15 -10 25.5t-26 10.5h-475q-15 0 -25.5 -10.5t-10.5 -25.5v-952q0 -23 22 -33q24 -9 40 8zM319 824h402v-828l-176 178q-10 10 -25 10t-26 -10l-176 -178v828h1z" />
    <glyph glyph-name="add" unicode="&#xe66a;" 
d="M512 896q-104 0 -198.5 -40.5t-163.5 -109t-109.5 -163.5t-40.5 -199t40.5 -199t109 -163.5t163.5 -109t199 -40.5t199 40.5t163.5 109t109 163.5t40.5 199t-40.5 199t-109 163.5t-163.5 109t-199 40.5zM512.5 -56q-89.5 0 -171 34.5t-140.5 93.5t-94 141t-35 171t35 171
t94 141t140.5 93.5t171 34.5t171 -34.5t140.5 -93.5t94 -141t35 -171t-35 -171t-94 -141t-140.5 -93.5t-171 -34.5zM748 425h-199v200q0 15 -10.5 25.5t-26 10.5t-26 -10.5t-10.5 -25.5v-200h-199q-15 0 -25.5 -10t-10.5 -25.5t10.5 -26t25.5 -10.5h199v-199
q0 -16 10.5 -26.5t26 -10.5t26 10.5t10.5 26.5v199h199q15 0 25.5 10.5t10.5 25.5t-10.5 25.5t-25.5 10.5z" />
    <glyph glyph-name="bluetooth" unicode="&#xe66b;" 
d="M1024 622q0 22 -20 33l-476 237q-20 9 -35 -2q-17 -9 -17 -30v-418l-424 213q-13 6 -27 1.5t-20.5 -17.5t-2 -27.5t17.5 -21.5l411 -205l-411 -207q-13 -7 -18 -21t2 -27q4 -8 13.5 -14t19.5 -6q8 0 15 3l424 213v-418q0 -20 17 -31q9 -5 19 -5t16 4l476 237q8 4 14 13.5
t6 19.5v0q0 22 -20 32l-411 206l411 206q8 4 14 13.5t6 18.5v0zM548 -33v359l359 -180zM548 442v360l359 -180z" />
    <glyph glyph-name="bag" unicode="&#xe66c;" 
d="M904 628q-2 13 -12 21.5t-23 8.5h-203v83q0 64 -45.5 109.5t-109.5 45.5t-109.5 -45.5t-45.5 -109.5v-83h-202q-14 0 -23.5 -8.5t-11.5 -21.5l-118 -715q-3 -17 7 -29q11 -12 28 -12h952q15 0 25.5 10.5t10.5 25.5q0 5 -2 12zM429 741v0q0 34 24 58.5t58 24.5v0v0
q35 0 59 -24.5t24 -58.5v0v-83h-165v83zM78 -57l107 643h171v-202q0 -16 10.5 -26.5t26 -10.5t26 10.5t10.5 26.5v202h165v-202q0 -16 10.5 -26.5t25.5 -10.5t25.5 10.5t10.5 26.5v202h172l107 -643h-867z" />
    <glyph glyph-name="briefcase" unicode="&#xe66d;" 
d="M36 -57h952q15 0 25.5 10.5t10.5 25.5v647q0 15 -10.5 25.5t-25.5 10.5h-276v109q0 16 -10.5 26.5t-25.5 10.5h-327q-15 0 -25.5 -10.5t-10.5 -26.5v-110h-277q-15 0 -25.5 -10.5t-10.5 -25.5v-647q1 -15 11.5 -25t24.5 -10zM385 735h254v-74h-254v74v0zM72 589h268
q3 -1 8.5 -1t7.5 1h311q2 -1 7.5 -1t8.5 1h268v-250h-239v43q0 16 -10.5 26.5t-26 10.5t-26 -10.5t-10.5 -26.5v-43h-254v43q0 16 -10.5 26.5t-25.5 10.5t-25.5 -10.5t-10.5 -26.5v-43h-241v250v0zM72 266h241v-41q0 -15 10.5 -25.5t25.5 -10.5t25.5 10.5t10.5 25.5v41h254
v-41q0 -15 10.5 -25.5t26 -10.5t26 10.5t10.5 25.5v41h241v-251h-881v251z" />
    <glyph glyph-name="calendar" unicode="&#xe66e;" 
d="M36 -93h952q15 0 25.5 10.5t10.5 26.5v813q0 15 -10.5 25.5t-25.5 10.5h-179v31q0 16 -10.5 26.5t-26 10.5t-26 -10.5t-10.5 -26.5v-31h-442v31q0 16 -10.5 26.5t-26 10.5t-26 -10.5t-10.5 -26.5v-31h-185q-15 0 -25.5 -10.5t-10.5 -25.5v-814q0 -15 11 -25.5t25 -10.5z
M72 720h149v-19q0 -16 10.5 -26.5t26 -10.5t26 10.5t10.5 26.5v19h442v-19q0 -16 10.5 -26.5t26 -10.5t26 10.5t10.5 26.5v19h144v-94h-881v94zM72 553h880v-574h-880v574v0zM773 386h-521q-15 0 -25.5 -10.5t-10.5 -26t10.5 -26t25.5 -10.5h521q15 0 25.5 10.5t10.5 26
t-10.5 26t-25.5 10.5zM512 210h-260q-15 0 -25.5 -10.5t-10.5 -25.5t10.5 -26t25.5 -11h260q16 0 26.5 11t10.5 26t-10.5 25.5t-26.5 10.5z" />
    <glyph glyph-name="cancel" unicode="&#xe66f;" 
d="M10.5 -117.5q10.5 -10.5 25.5 -10.5t26 11l450 450l450 -450q11 -11 26 -11t25.5 10.5t10.5 25.5t-11 26l-450 450l450 450q11 11 11 26t-10.5 25.5t-25.5 10.5t-26 -11l-450 -450l-450 450q-11 11 -26 11t-25.5 -10.5t-10.5 -25.5t11 -26l450 -450l-450 -450
q-11 -11 -11 -26t10.5 -25.5z" />
    <glyph glyph-name="circel-correct" unicode="&#xe670;" 
d="M300 414q-10 11 -25 11t-25.5 -10.5t-10.5 -25.5t10 -26l167 -167q11 -10 26 -10h1q16 1 27 13l417 500q10 11 8.5 26t-12.5 25q-11 9 -26 8t-25 -13l-393 -469zM782 818q-152 95 -328.5 74.5t-303.5 -146.5q-74 -74 -112 -169.5t-38 -192.5t38 -193t112 -169
q62 -62 168 -106t193 -44v0v0q88 0 194 44t168 106q128 127 148 304.5t-76 329.5q-8 12 -22.5 15.5t-27 -4.5t-16 -22.5t4.5 -26.5q83 -131 65.5 -283t-127.5 -262q-84 -84 -197.5 -114t-227 0t-197.5 114q-63 63 -96 145t-33 165.5t33 165.5t96 145q110 109 261.5 126.5
t282.5 -63.5q13 -8 27.5 -4.5t22.5 16t4.5 27t-16.5 22.5z" />
    <glyph glyph-name="camera" unicode="&#xe671;" 
d="M36 -128h952v0q15 0 25.5 10.5t10.5 25.5v0v952q0 15 -10.5 25.5t-25.5 10.5h-952v0q-15 0 -25.5 -10.5t-10.5 -25.5v0v-952q0 -14 11 -25t25 -11zM321 824h631v-404h-179q-14 97 -88 162t-173 65q-112 0 -191 -82v259v0zM512.5 575q78.5 0 135 -56t56.5 -135t-56 -135
t-135.5 -56t-135.5 56t-56 135t56.5 135t135 56zM72 824h177v-404h-177v404v0zM72 348h180q14 -97 88 -162t172.5 -65t172.5 65t88 162h179v-404h-880v404v0zM705 661h93h1q14 0 24.5 10.5t10.5 24.5v1q0 15 -10.5 25.5t-25.5 10.5h-93h-1q-15 0 -25 -10.5t-10 -25.5v0
q0 -15 10.5 -25.5t25.5 -10.5zM512 247q57 0 97 40.5t40 96.5t-40 96.5t-97 40.5v0q-56 0 -96 -40t-40 -97v0v0q0 -57 40 -97t96 -40v0zM512 449h1q27 0 46 -19t19 -46v0v0q0 -27 -19 -46t-46 -19h-1v0q-27 0 -46 19t-19 46v0v0q0 27 19 46t46 19v0v0z" />
    <glyph glyph-name="circle-left" unicode="&#xe672;" 
d="M512 -128q104 0 198.5 40.5t163.5 109t109.5 163.5t40.5 199.5t-40.5 199t-109 163t-163.5 109t-199.5 40.5t-199 -40.5t-163 -109t-109 -163.5t-40.5 -199t40.5 -198.5t109 -163.5t163.5 -109.5t199 -40.5zM511.5 825q89.5 0 171 -35t140.5 -94t94 -140.5t35 -171
t-35 -171t-94 -140.5t-140.5 -94t-171 -35t-171 35t-140.5 94t-94 140.5t-35 171t35 171t94 140.5t140.5 94t171 35zM560 129q11 -11 26 -11t25.5 10.5t10.5 25.5t-11 26l-207 207l207 207q11 11 11 26t-10.5 25.5t-25.5 10.5t-26 -10l-233 -233q-10 -11 -10 -26v0v0
q0 -15 10 -25z" />
    <glyph glyph-name="circle-cancel" unicode="&#xe673;" 
d="M512 -128q139 0 257 68.5t186.5 186.5t68.5 257t-68.5 257t-186.5 186.5t-257 68.5q-211 0 -361.5 -150.5t-150.5 -361.5t150.5 -361.5t361.5 -150.5zM512 824q89 0 170.5 -35t140.5 -94t94 -140.5t35 -170.5t-35 -170.5t-94 -140.5t-140.5 -94t-170.5 -35t-170.5 35
t-140.5 94t-94 140.5t-35 170.5t35 170.5t94 140.5t140.5 94t170.5 35zM319.5 197.5q10.5 -10.5 25.5 -10.5t26 10l141 141l141 -141q11 -10 26 -10t25.5 10.5t10.5 25.5t-11 25l-141 141l141 141q11 11 11 26t-10.5 25.5t-25.5 10.5t-26 -11l-141 -141l-141 141
q-11 11 -26 11t-25.5 -10.5t-10.5 -25.5t11 -26l141 -141l-141 -141q-11 -10 -11 -25t10.5 -25.5z" />
    <glyph glyph-name="circle-right" unicode="&#xe674;" 
d="M512 -128q139 0 257 68.5t186.5 186.5t68.5 257t-68.5 257t-186.5 186.5t-257 68.5q-211 0 -361.5 -150.5t-150.5 -361.5t150.5 -361.5t361.5 -150.5zM512 824q89 0 170.5 -35t140.5 -94t94 -140.5t35 -170.5t-35 -170.5t-94 -140.5t-140.5 -94t-170.5 -35t-170.5 35
t-140.5 94t-94 140.5t-35 170.5t35 170.5t94 140.5t140.5 94t170.5 35zM394 128q10 -10 25 -10t26 10l233 233q10 11 10 26t-10 25l-233 233q-11 10 -25.5 10t-25.5 -10.5t-11 -25.5t11 -25l207 -207l-207 -207q-11 -11 -11 -26t11 -26v0z" />
    <glyph glyph-name="clock" unicode="&#xe675;" 
d="M512 -128q139 0 257 68.5t186.5 186.5t68.5 257t-68.5 257t-186.5 186.5t-257 68.5t-257 -68.5t-186.5 -186.5t-68.5 -257t68.5 -257t186.5 -186.5t257 -68.5zM512 824q90 0 171.5 -34.5t140.5 -93.5t93.5 -140.5t34.5 -171.5t-34.5 -171.5t-93.5 -140.5t-140.5 -93.5
t-171.5 -34.5t-171.5 35t-140.5 94t-93.5 140.5t-34.5 170.5q0 90 34.5 171.5t93.5 140.5t140.5 93.5t171.5 34.5zM488 324h171v0q15 0 25.5 10.5t10.5 25.5v0v1q0 14 -10.5 24.5t-25.5 10.5v0h-135v211v0q0 15 -10.5 25.5t-24.5 10.5h-1v0q-15 0 -25.5 -10.5t-10.5 -25.5v0
v-247q0 -15 10.5 -25.5t25.5 -10.5z" />
    <glyph glyph-name="clip" unicode="&#xe676;" 
d="M484 439q11 11 11 26t-11 25.5t-26 10.5t-26 -11l-192 -191q-51 -50 -51 -120.5t50.5 -120.5t122 -50t121.5 50l435 431q30 29 50.5 78t20.5 90v1q0 98 -71 168q-70 70 -169.5 70t-170.5 -70l-434 -431q-91 -90 -91 -216q0 -129 91 -217q90 -90 218 -90q130 0 219 90
l193 191q10 11 10 26t-10.5 25.5t-25.5 10.5t-26 -11l-193 -191q-28 -29 -77 -49t-89 -20h-1v0q-41 0 -89.5 20t-77.5 49q-69 69 -69 165.5t69 165.5l435 431q49 48 118 48v0q28 0 63 -14t55 -34t34.5 -54t14.5 -63v0q0 -29 -14.5 -63t-34.5 -54l-435 -432q-29 -28 -70 -28
t-71 28q-12 12 -20.5 32.5t-8.5 37.5q0 40 29 69l194 191v0z" />
    <glyph glyph-name="cloud" unicode="&#xe677;" 
d="M663 737h-1q-122 0 -225 -85t-127 -205q-41 17 -85 17h-12q-89 -4 -151 -71.5t-62 -160.5q0 -90 64 -154.5t154 -64.5h462q93 0 172 46t125 125.5t46 172.5v3q0 3 0.5 8t0.5 7q0 98 -48.5 181.5t-131.5 132t-181 48.5zM951 365v-13q-2 -111 -81 -188.5t-190 -77.5h-462
q-60 0 -103 42.5t-43 103.5q0 63 42.5 109.5t102.5 49.5h7q51 0 94 -32q17 -13 36.5 -4.5t21.5 31.5q4 117 87.5 197.5t199.5 80.5q119 0 204 -85t85 -205q0 -5 -1 -9z" />
    <glyph glyph-name="credit-card" unicode="&#xe678;" 
d="M988 737h-951q-15 0 -25.5 -10.5t-10.5 -25.5v-222q-1 -3 -1 -8t1 -8v-396q0 -15 10.5 -25.5t25.5 -10.5h951q15 0 25.5 10.5t10.5 25.5v634q0 15 -10.5 25.5t-25.5 10.5v0zM214 291h119q15 0 25.5 10.5t10.5 25.5t-10.5 25t-25.5 10h-119q-15 0 -25.5 -10.5t-10.5 -25.5
t10.5 -25t25.5 -10v0zM952 102h-879v333h879v-333v0zM952 506h-879v160h879v-160z" />
    <glyph glyph-name="clock-" unicode="&#xe679;" 
d="M86 575q-42 -94 -42 -192q0 -172 113 -303l-146 -147q-11 -10 -11 -25t10.5 -25.5t25.5 -10.5t26 11l146 146q131 -111 304 -111q86 0 164 29t140 83l146 -147q11 -10 26 -10t25.5 10.5t10.5 25.5t-11 25l-146 147q113 130 113 303q0 101 -42 192q39 22 62.5 62t23.5 86
q0 71 -50.5 121.5t-122.5 50.5q-41 0 -85 -25.5t-64 -61.5q-89 40 -190 40q-99 0 -191 -40q-20 36 -64 61.5t-85 25.5q-71 -1 -121.5 -51.5t-50.5 -121.5q0 -46 23.5 -85.5t62.5 -62.5zM852 823q42 0 71.5 -29t29.5 -71v0q0 -23 -14.5 -48t-34.5 -37l-0.5 1t-1.5 2
q-12 17 -19 26q-2 2 -5 6.5t-4 5.5q-13 17 -29 32q-5 6 -18 17q-3 2 -9 8t-9 8l-19 13q-6 6 -20 14q-2 1 -4 4q14 22 37 35t49 13zM264 689q16 12 24 17q0 1 2 2.5t3 1.5q98 66 219 66q119 0 219 -66q1 -1 6 -4q12 -8 23 -18q1 -1 3 -2t3 -2q3 -3 8 -7.5t9.5 -8.5t8.5 -8
t11.5 -12.5t11.5 -12.5q1 -1 3 -3.5t3 -3.5q9 -10 15 -21q1 -1 3 -3.5t3 -4.5q66 -99 66 -217q0 -153 -104 -266q-9 -3 -16 -9q-6 -5 -9 -17q-114 -103 -267 -103q-81 0 -154 31t-130 89q-54 55 -83 126t-29 148q0 118 67 218l5 7q1 2 6.5 9.5t8.5 11.5q3 5 6 7q23 26 49 49
q3 4 6 6v0zM173 823q26 0 49 -13t36 -35l-4 -4q-4 -2 -11 -7.5t-8 -6.5q-13 -8 -19 -14q-3 -2 -8.5 -7.5t-9.5 -7.5q-7 -7 -23 -22q-13 -14 -25 -28q-2 -3 -5 -7t-5 -7q-2 -2 -8.5 -11t-9.5 -14l-1.5 -1.5t-0.5 -1.5q-22 14 -35.5 36.5t-13.5 48.5q1 43 30.5 72.5t71.5 29.5
zM512 347h156v0q15 0 25.5 10.5t10.5 24.5v1v0q0 15 -10.5 25.5t-25.5 10.5v0h-119v187v0q0 15 -10.5 25.5t-25.5 10.5h-1v0q-15 0 -25.5 -10.5t-10.5 -25.5v0v-223q0 -15 10.5 -25.5t25.5 -10.5v0z" />
    <glyph glyph-name="cursor-" unicode="&#xe67a;" 
d="M794 286l199 63q10 3 17 12.5t8 19.5v2q0 10 -5.5 19.5t-14.5 14.5l-946 475q-22 11 -41 -6q-19 -19 -7 -42l457 -952q4 -8 13.5 -14t19.5 -6v0h2q10 1 19.5 8t12.5 17l73 219l230 -232q10 -10 25.5 -10t25.5 10l131 132q11 11 11 26t-11 26l-219 217v1zM855 -40
l-246 248q-11 10 -25 10h-1q-5 0 -8 -1q-8 -1 -15.5 -8t-9.5 -16l-63 -190l-373 777l773 -388l-171 -55q-8 -2 -15 -9.5t-9 -16.5q-1 -4 -1 -8q0 -15 11 -25l234 -236z" />
    <glyph glyph-name="cursor" unicode="&#xe67b;" 
d="M380 236l113 -339q4 -11 13 -17.5t19 -7.5h3v0q9 0 19 6t14 14l459 952q12 23 -7 42q-18 18 -41 6l-952 -476q-8 -4 -14 -13t-6 -18v-5q2 -24 25 -32zM910 781l-376 -777l-91 272q-6 17 -23 23l-289 92l779 390v0z" />
    <glyph glyph-name="cut" unicode="&#xe67c;" 
d="M278 183q-64 0 -109 -46t-45 -110t45 -109.5t109 -45.5q61 0 105.5 42.5t47.5 103.5l80 190l80 -188q3 -61 48 -104t106 -43q65 0 110 45.5t45 110.5t-45 110.5t-110 45.5q-74 0 -122 -59l-73 175l229 544q5 14 -0.5 28t-19.5 19q-14 6 -27.5 1t-19.5 -19l-202 -481
l-204 481q-6 14 -20 19.5t-27.5 -0.5t-19 -20t0.5 -28l232 -544l-74 -177q-47 59 -120 59v0zM360 28q0 -34 -24 -58.5t-58 -24.5t-58.5 24.5t-24.5 59t24.5 58.5t58.5 24q33 0 57.5 -24t24.5 -59zM745 114q35 0 59.5 -24.5t24.5 -59t-25 -59.5t-59 -25t-58.5 25t-24.5 59.5
t24.5 59t58.5 24.5v0z" />
    <glyph glyph-name="download" unicode="&#xe67d;" horiz-adv-x="1076" 
d="M511 9q5 -5 13 -8h1q6 -3 13.5 -3t14.5 3h1q7 3 12 8l500 502q11 11 11 26.5t-11 27t-27 11.5t-27 -12l-437 -436v730v0q0 16 -11 27t-26 11v0q-16 0 -27 -11t-11 -27v-731l-435 437q-11 12 -27 12t-27 -11.5t-11 -27t11 -26.5l500 -502v0zM38 -128h1000q15 0 26 11
t11 27v0q0 16 -11 27t-26 11v0h-1000q-16 0 -27 -11t-11 -27q0 -15 11 -26.5t27 -11.5z" />
    <glyph glyph-name="down" unicode="&#xe67e;" horiz-adv-x="1025" 
d="M1014.5 638.5q-10.5 10.5 -25.5 10.5t-26 -11l-449 -450l-451 450q-11 11 -26 11t-25.5 -10.5t-10.5 -25.5t11 -26l475 -475q11 -10 26 -10t25 10l476 475q11 11 11 26t-10.5 25.5z" />
    <glyph glyph-name="edit" unicode="&#xe67f;" 
d="M987 -39h-950q-15 0 -25.5 -10.5t-10.5 -25.5q0 -14 10.5 -25t25.5 -11h951q15 0 25.5 10.5t10.5 25.5q0 14 -11 25t-26 11zM1 277l-1 -170q0 -16 10.5 -26.5t24.5 -10.5h1l168 1h1q14 0 24 11l583 583q10 11 10 26t-10 26l-167 169q-10 10 -25 10t-26 -10l-117 -118
l-466 -466q-10 -12 -10 -25v0zM620 809l117 -118l-66 -66l-117 118zM73 261l429 430l118 -117l-430 -429l-118 -1l1 117v0z" />
    <glyph glyph-name="export" unicode="&#xe680;" 
d="M988 276q-15 0 -25.5 -10.5t-10.5 -25.5v-296h-880v880h296q15 0 25.5 10.5t10.5 25.5v0q0 15 -10.5 25.5t-25.5 10.5v0h-332q-15 0 -25.5 -10.5t-10.5 -25.5v-952q0 -15 10.5 -25.5t25.5 -10.5h952q15 0 25.5 10.5t10.5 25.5v332q0 14 -10.5 25t-25.5 11zM1022 873
q-7 14 -20 20h-1q-7 3 -13 3h-477q-15 0 -25.5 -10.5t-10.5 -25.5t10.5 -25.5t25.5 -10.5h389l-414 -415q-11 -10 -11 -25t11 -26q10 -11 25 -11v0q15 0 26 11l414 415v-389q0 -16 10.5 -26.5t26 -10.5t26 10.5t10.5 26.5v476q0 2 -2 13v0z" />
    <glyph glyph-name="envelope" unicode="&#xe681;" 
d="M1 -26q0 -1 1 -3q0 -1 0.5 -2t0.5 -1.5t0.5 -1.5t0.5 -2l1 -4q1 0 1.5 -1l0.5 -1q2 -2 2 -3l2 -3l1 -1h1q4 -4 10 -6q1 0 2 -1q7 -1 10 -1h955q3 0 10 1q1 0 2 1q7 4 10 6h1v1l3 3q2 2 2 3l0.5 1t1 1.5l1.5 1.5v2q1 1 1 3q0 1 0.5 2t0.5 1.5t0.5 1.5t0.5 2v815v1
q0 14 -10.5 24.5t-25.5 10.5v0h-952v0q-15 0 -25.5 -10.5t-10.5 -24.5v-1v-811q1 -1 1 -4zM114 16l268 320l111 -78q9 -6 20.5 -6t20.5 6l112 78l267 -320h-799zM955 80l-250 297l249 174v-471h1v0zM73 753h882v-114l-440 -307l-442 307v114zM73 551l250 -174l-250 -297v471
z" />
    <glyph glyph-name="folder" unicode="&#xe682;" 
d="M36 -57h952v0q15 0 25.5 10.5t10.5 24.5v1v702q0 15 -10.5 25.5t-25.5 10.5h-460l-85 96q-11 12 -27 12h-380v0q-15 0 -25.5 -10.5t-10.5 -24.5v-1v-810q0 -15 10.5 -25.5t25.5 -10.5zM72 752h328l86 -96q11 -12 26 -12h441v-631h-881v739z" />
    <glyph glyph-name="file" unicode="&#xe683;" 
d="M107 -128h810q15 0 25.5 10.5t10.5 25.5v952v0q0 15 -10.5 25.5t-24.5 10.5h-1h-608q-6 0 -8 -1l-2 -1q-1 0 -3.5 -1t-3.5 -1l-1.5 -1.5t-1.5 -0.5q-5 -4 -7 -6l-203 -238q-2 -3 -6 -10q-1 -1 -1 -4q0 -1 -0.5 -3.5t-0.5 -4.5v-715q0 -16 10.5 -26.5t25.5 -10.5zM273 761
v-104h-88zM143 586h166q16 0 26.5 10t10.5 26v202h535v-880h-738v642v0zM773 507h-522q-15 0 -25.5 -10.5t-10.5 -25.5t10.5 -25.5t25.5 -10.5h522q15 0 25.5 10.5t10.5 25.5v0q0 15 -10.5 25.5t-25.5 10.5v0zM773 332h-522q-15 0 -25.5 -10.5t-10.5 -25.5t10.5 -25.5
t25.5 -10.5h522q15 0 25.5 10.5t10.5 25.5t-10.5 25.5t-25.5 10.5z" />
    <glyph glyph-name="favorite" unicode="&#xe684;" 
d="M1023 459q-4 19 -24 26l-296 100l-158 292q-9 19 -32 19t-33 -19l-157 -291l-297 -90q-20 -6 -25 -26q-5 -19 9 -35l195 -214l-81 -302q-6 -23 12 -37q17 -16 38 -7l339 135l339 -135q6 -3 14 -3q13 0 24 10q18 15 12 37l-81 302l193 204q13 15 9 34v0zM753 257
q-14 -16 -8 -35l67 -250l-285 112q-7 3 -14.5 3t-13.5 -3l-285 -113l68 250q5 20 -9 34l-170 187l256 77q15 4 22 17l132 245l131 -245q7 -12 22 -17l254 -86z" />
    <glyph glyph-name="forward" unicode="&#xe685;" 
d="M497 104q6 -2 14 -2q15 0 25 10l230 237q11 11 11 26t-11 26l-231 237q-16 17 -39 8q-22 -9 -22 -34v-128l-148 154q-17 17 -39 8t-22 -34v-474q0 -25 22 -34q6 -2 13 -2q15 0 26 10l149 154v-128q-1 -23 22 -34v0zM546 355v169l144 -149l-144 -148v128zM336 227v297
l139 -143v-11z" />
    <glyph glyph-name="gallery" unicode="&#xe686;" 
d="M1 -101v0q0 -1 1 -1l1 -2.5t1 -3.5l0.5 -0.5t0.5 -1t0.5 -1l0.5 -0.5l1 -1q1 -1 2 -2.5t2 -2.5v0l2 -2l1 -1q1 -1 1.5 -1t1.5 -1l1 -1q1 0 1 -1l1.5 -0.5l1.5 -0.5q1 0 2 -1q1 0 2 -1v0q2 -1 8 -1h954q15 0 25.5 10.5t10.5 25.5v952q0 15 -10.5 25.5t-25.5 10.5h-952
q-15 0 -25.5 -10.5t-10.5 -25.5v-950q0 -1 0.5 -4.5t0.5 -4.5v-2v0zM954 -55h-797l589 386l208 -199v-187zM615 521q24 0 41 17t17 41t-17 41.5t-41 17.5t-41 -17.5t-17 -41.5t17 -41t41 -17zM72 824h882v-592l-179 171q-10 10 -25 10q-11 0 -20 -6l-168 -111l-117 118
q-10 10 -22.5 11t-22.5 -5l-328 -207v611v0zM72 128l342 215l86 -87l-428 -280v152z" />
    <glyph glyph-name="gamepad" unicode="&#xe687;" 
d="M668 654h-122v118q0 15 -10.5 25.5t-25.5 10.5h-1q-14 0 -24.5 -10.5t-10.5 -25.5v0v-118h-117q-97 0 -179 -47.5t-130 -129.5t-48 -178t47.5 -178t130 -129.5t178.5 -47.5l311 -1q97 0 179 47.5t130 129t48 177.5q0 97 -47.5 179.5t-129.5 130t-179 47.5zM667 15l-311 1
q-118 0 -201 83t-83 201q0 117 84 200.5t202 82.5l310 -1q117 0 200.5 -83t83.5 -201q-1 -117 -84.5 -200t-200.5 -83zM349 333h-41v42q0 15 -10.5 25.5t-25.5 10.5h-1q-15 0 -25.5 -10.5t-10.5 -25.5v0v-42h-41v0q-15 0 -25.5 -10t-10.5 -25v-1q0 -15 10.5 -25.5
t25.5 -10.5h41v-41q0 -15 10.5 -25.5t26.5 -10.5v0q15 0 25.5 10.5t10.5 25.5v0v41h41h1q15 0 25 10.5t10 25.5v0q0 16 -10.5 26t-25.5 10v0zM690 298v0q24 0 41 17t17 41t-17 41t-41 17v0v0q-24 0 -41 -17t-17 -41t17 -41t41 -17v0zM806 182v0q24 0 41 17t17 41t-17 41
t-41 17v0v0q-24 0 -41 -17t-17 -41t17 -41t41 -17v0z" />
    <glyph glyph-name="garbage" unicode="&#xe688;" 
d="M36 677h40l92 -773q2 -14 12 -23t24 -9h616q13 0 23.5 9t12.5 23l92 773h40q15 0 25.5 10.5t10.5 25.5v1q0 15 -10.5 25.5t-25.5 10.5v0h-277v110v0q0 15 -10.5 25.5t-25.5 10.5v0h-326q-15 0 -25.5 -10.5t-10.5 -25.5v-110h-277q-15 0 -25.5 -10.5t-10.5 -26t10.5 -26
t25.5 -10.5v0zM385 824h254v-74h-254v74zM875 677l-87 -734h-552l-87 734h726v0zM392 54q15 0 25.5 10.5t10.5 25.5v433v0q0 15 -10.5 25.5t-24.5 10.5h-1q-15 0 -25.5 -10.5t-10.5 -25.5v-433q0 -15 10.5 -25.5t25.5 -10.5v0zM632 54q15 0 25.5 10.5t10.5 25.5v433v0
q0 15 -10.5 25.5t-25.5 10.5v0q-15 0 -25.5 -10.5t-10.5 -25.5v-433q0 -15 10.5 -25.5t25.5 -10.5v0z" />
    <glyph glyph-name="headphones" unicode="&#xe689;" 
d="M511 896q-104 0 -198.5 -41t-163 -109.5t-109 -163.5t-40.5 -199v-475q0 -15 10.5 -25.5t25.5 -10.5h186q16 0 26.5 10.5t10.5 25.5v434q0 15 -10.5 25.5t-26.5 10.5h-150v5q0 89 35 171t94 141t140.5 94t170.5 35t170.5 -35t140.5 -94t94 -140.5t35 -171.5v-5h-150
q-16 0 -26.5 -10.5t-10.5 -25.5v-434q0 -15 10.5 -25.5t26.5 -10.5h186q15 0 25.5 10.5t10.5 25.5v475q-1 104 -42 199t-109.5 164t-163 109.5t-198.5 40.5zM186 306v-362h-114v362h114v0zM951 261v-317h-114v361h114v-44z" />
    <glyph glyph-name="home" unicode="&#xe68a;" 
d="M39 -127h351q1 0 3 -0.5t3 -0.5h237q5 0 7 1h348v0q15 0 25.5 10.5t10.5 25.5v0v476q0 4 -1 7q0 1 -2 4q0 2 -1 2q-1 4 -2 5l-0.5 0.5l-0.5 0.5q-1 2 -4 6l-475 475q-11 11 -26 11t-26 -11l-475 -475q-3 -4 -4 -6l-0.5 -0.5l-0.5 -0.5q0 -1 -1 -2.5t-1 -2.5l-0.5 -1
t-0.5 -2q-1 0 -1.5 -1.5t-0.5 -2.5q-1 -3 -1 -7v-476q3 -15 13.5 -25t25.5 -10zM597 -55h-165v166h165v-166zM514 809l388 -389h-776l388 389v0zM75 348h877v-404h-283v203v0q0 15 -10 25.5t-25 10.5h-1h-237v0q-15 0 -25.5 -10.5t-10.5 -25.5v0v-202h-285v403v0z" />
    <glyph glyph-name="heart" unicode="&#xe68b;" 
d="M1017 600q-22 110 -95 175.5t-173 65.5q-114 0 -236 -89q-122 91 -238 91q-101 0 -173.5 -66.5t-94.5 -177.5q-7 -48 -6.5 -98t16.5 -103.5t41 -105t67.5 -103t95 -97.5t124 -88.5t155.5 -75.5q6 -3 12.5 -3t13.5 3q83 34 154.5 77t124 89t95 97.5t67.5 103t40.5 105
t16 103t-6.5 97.5v0zM513 0q-73 30 -136 68t-109.5 78.5t-84 85.5t-59.5 90t-36.5 91t-15 89t5.5 84q16 84 70 134.5t127 50.5q102 0 215 -92q10 -8 22.5 -8t22.5 8q113 90 214 90q73 0 126.5 -50t70.5 -133q6 -41 5.5 -83.5t-14.5 -88.5t-36.5 -90.5t-59.5 -89.5t-83.5 -86
t-109 -79t-135.5 -69v0z" />
    <glyph glyph-name="hourglass" unicode="&#xe68c;" 
d="M132 72q-11 -3 -18.5 -13.5t-7.5 -21.5v-129q0 -15 10.5 -25.5t25.5 -10.5h740v0q15 0 25.5 10.5t10.5 25.5v0v129q0 12 -7 22t-19 13q-9 103 -68 186t-150 126q91 43 150 126t68 186q11 3 18.5 13.5t7.5 21.5v129v0q0 15 -10.5 25.5t-25.5 10.5v0h-740v0
q-15 0 -25.5 -10.5t-10.5 -25.5v0v-129q0 -12 7 -22t19 -13q9 -103 68 -186t150 -126q-91 -43 -150 -126t-68 -186zM846 -55h-668v56h667v-56h1zM179 823h667v-56h-667v56zM205 694h615q-13 -116 -101 -195t-207 -79q-118 0 -205.5 79t-101.5 195zM512.5 348
q118.5 0 206.5 -79t102 -195h-616q14 116 101.5 195t206 79z" />
    <glyph glyph-name="info" unicode="&#xe68d;" 
d="M512 -128q104 0 199 40.5t163.5 109t109 163.5t40.5 199t-40.5 199t-109 163.5t-163.5 109t-199 40.5t-198.5 -40.5t-163.5 -109t-109.5 -163.5t-40.5 -199t40.5 -199t109.5 -163.5t163.5 -109t198.5 -40.5zM512.5 825q89.5 0 171 -35t140.5 -94t94 -140.5t35 -171
t-35 -171t-94 -140.5t-140.5 -94t-171 -35t-171 35t-140.5 94t-94 140.5t-35 171t35 171t94 140.5t140.5 94t171 35zM391 123q0 -16 10.5 -26t25.5 -10h237q15 0 25.5 10t10.5 25.5t-10.5 26t-25.5 10.5h-83v319q0 15 -10.5 25.5t-25.5 10.5h-118q-15 0 -25.5 -10.5
t-10.5 -26t10.5 -26t25.5 -10.5h83v-282h-83q-15 0 -25.5 -10.5t-10.5 -25.5v0zM496.5 574q24.5 0 41.5 17t17 41v0q0 24 -17 41t-41.5 17t-41.5 -17t-17 -41v0q0 -24 17 -41t41.5 -17z" />
    <glyph glyph-name="layer" unicode="&#xe68e;" 
d="M988 -56h-916v916v0q0 15 -10.5 25.5t-25.5 10.5v0q-15 0 -25.5 -10.5t-10.5 -25.5v-952q0 -15 10.5 -25.5t25.5 -10.5h952q15 0 25.5 10.5t10.5 25.5v1q0 14 -10.5 24.5t-25.5 10.5v0zM988 896h-786q-15 0 -25.5 -10.5t-10.5 -25.5v-785q0 -15 10.5 -25.5t25.5 -10.5
h786q15 0 25.5 10.5t10.5 25.5v785q0 15 -10.5 25.5t-25.5 10.5zM952 110h-714v714h714v-714z" />
    <glyph glyph-name="layout" unicode="&#xe68f;" 
d="M36 433h391v0q15 0 25.5 10.5t10.5 25.5v0v391v0q0 15 -10.5 25.5t-25.5 10.5v0h-391v0q-15 0 -25.5 -10.5t-10.5 -25.5v0v-391q0 -14 11 -25t25 -11zM72 824h318v-318h-318v318v0zM1024 860v0q0 15 -10.5 25.5t-25.5 10.5v0h-391v0q-15 0 -25.5 -10.5t-10.5 -25.5v0
v-391q0 -15 10.5 -25.5t25.5 -10.5h391v0q15 0 25.5 10.5t10.5 25.5v0v391zM952 506h-318v318h318v-318v0zM36 -128h391v0q15 0 25.5 10.5t10.5 25.5v0v391v0q0 15 -10.5 25.5t-25.5 10.5v0h-391v0q-15 0 -25.5 -10.5t-10.5 -25.5v0v-391q0 -14 11 -25t25 -11v0zM72 262h318
v-318h-318v318v0zM988 335h-390h-1q-15 0 -25.5 -10.5t-10.5 -25.5v0v-391q0 -15 10.5 -25.5t26.5 -10.5h390v0q15 0 25.5 10.5t10.5 25.5v0v391q0 14 -11 25t-25 11v0zM952 -56h-318v318h318v-318v0z" />
    <glyph glyph-name="left" unicode="&#xe690;" 
d="M733 -117q10 -11 25 -11t25.5 10.5t10.5 25.5t-10 26l-449 450l449 450q10 11 10 26t-10.5 25.5t-25.5 10.5t-25 -11l-475 -475q-11 -11 -11 -26t11 -26z" />
    <glyph glyph-name="lightning" unicode="&#xe691;" 
d="M422 -125q6 -3 13 -3q19 0 30 16l376 547q13 17 2.5 36.5t-31.5 19.5l-233 2l67 360q3 12 -3 23t-17 16.5t-23 2.5t-20 -13l-398 -505q-8 -10 -8 -23q0 -8 3 -15q4 -9 13.5 -15t19.5 -6v0l257 -1l-69 -403q-3 -12 3 -23.5t18 -15.5zM286 390l263 333l-49 -260
q-3 -17 8 -30q12 -13 27 -13l208 -1l-245 -356l48 284q3 17 -7 29t-27 12l-226 2v0z" />
    <glyph glyph-name="map" unicode="&#xe692;" 
d="M998 798l-318 96h-1q-1 0 -2.5 0.5t-2.5 0.5h-9q-2 0 -4 -1h-2l-306 -93l-306 93q-17 6 -32 -5q-15 -12 -15 -29v-856q0 -12 7 -21.5t19 -12.5l317 -96q7 -2 10.5 -2t10.5 2l307 92l306 -92q7 -2 11 -2q11 0 21 7q15 12 15 29v856q0 25 -26 34zM317 -44l-245 74v782
l245 -75v-781zM634 31l-244 -75v781l244 75v-781zM952 -44l-245 74v782l245 -75v-781v0z" />
    <glyph glyph-name="logout" unicode="&#xe693;" 
d="M723.5 119.5q10.5 -10.5 25.5 -10.5t26 11l238 238q3 4 4 5t1 2l2 4q0 2 1 2q1 1 1.5 2.5t0.5 2.5q1 2 1 6.5t-1 7.5q0 2 -2 4q0 2 -1 2l-2 5q0 1 -1 1q-1 2 -4 5l-238 239q-11 10 -26 10t-25.5 -10.5t-10.5 -25.5t11 -26l176 -176h-626q-15 0 -25.5 -10.5t-10.5 -25.5
t10.5 -25.5t25.5 -10.5h626l-176 -177q-11 -9 -11 -24t10.5 -25.5zM36 -128h476q15 0 25.5 10.5t10.5 25.5v356v0q0 15 -10.5 25.5t-25.5 10.5v0q-16 0 -26.5 -10.5t-10.5 -25.5v-320h-403v880h403v-320q0 -15 10.5 -25.5t26 -10.5t26 10.5t10.5 25.5v356v0q0 15 -10.5 25.5
t-25.5 10.5v0h-476q-15 0 -25.5 -10.5t-10.5 -25.5v-952q1 -15 11.5 -25.5t24.5 -10.5v0z" />
    <glyph glyph-name="link" unicode="&#xe694;" 
d="M260 488l-218 -218q-17 -17 -29.5 -47t-12.5 -54.5t12.5 -54.5t29.5 -47l153 -153q17 -17 46.5 -29.5t54.5 -12.5h1v0q25 0 54.5 12.5t47.5 29.5l216 219q18 17 30.5 47t12.5 54v1q0 2 -1 4q1 0 2 -0.5t2 -0.5h1q24 0 54 12.5t47 30.5l219 218q17 17 29.5 47t12.5 54.5
t-12.5 54.5t-29.5 47l-153 153q-17 17 -47 29t-54 12h-1q-59 0 -101 -42l-218 -218q-18 -17 -30.5 -47t-12.5 -54v-1q0 -3 1 -4q-1 0 -2 0.5t-2 0.5h-1q-24 0 -54 -12.5t-47 -30.5zM463 581l218 218q20 19 47.5 19t46.5 -19l152 -152q19 -19 19 -46t-19 -47l-219 -218
q-19 -18 -46.5 -18t-46.5 18l-48 48l44 44q11 12 11 28.5t-11 27.5t-27.5 11t-27.5 -11l-44 -44l-49 48q-19 20 -19 47q0 26 19 46zM408 433l48 -49l-44 -44q-11 -11 -11 -27.5t11 -27.5q11 -12 27 -12q17 0 28 12l44 44l48 -48q19 -20 19 -47t-19 -47l-218 -218
q-19 -19 -46.5 -19t-46.5 19l-151 153q-19 19 -19 46t19 47l218 218q20 19 47 19q26 0 46 -19z" />
    <glyph glyph-name="monitor" unicode="&#xe695;" 
d="M988 861h-952q-15 0 -25.5 -10.5t-10.5 -26.5v-642q0 -15 10.5 -25.5t25.5 -10.5h440v-166h-202q-15 0 -25.5 -10.5t-10.5 -26t10.5 -26t25.5 -10.5h476q15 0 25.5 10.5t10.5 26t-10.5 26t-25.5 10.5h-202v166h440q15 0 25.5 10.5t10.5 25.5v642q0 16 -10.5 26.5
t-25.5 10.5zM952 218h-880v115h880v-115zM952 404h-880v384h880v-384z" />
    <glyph glyph-name="menu" unicode="&#xe696;" 
d="M757 649h-474v0q-15 0 -25.5 -10.5t-10.5 -25.5v0q0 -16 10.5 -26t25.5 -10h475h1q15 0 25 10.5t10 24.5v1q0 15 -10.5 25.5t-26.5 10.5zM757 174h-474v0q-15 0 -25.5 -10.5t-10.5 -25.5v0q0 -16 10.5 -26t25.5 -10h475h1q15 0 25 10t10 25v1q0 15 -10.5 25.5t-26.5 10.5
zM757 412h-474v0q-15 0 -25.5 -10.5t-10.5 -25.5v0q0 -16 10.5 -26.5t25.5 -10.5h475h1q15 0 25 10.5t10 25.5v1q0 15 -10.5 25.5t-26.5 10.5z" />
    <glyph glyph-name="moon" unicode="&#xe697;" 
d="M909 712q23 3 29 27q6 22 -11 37q-59 49 -155 84.5t-173 35.5q-104 0 -198.5 -40.5t-163 -109t-109 -163.5t-40.5 -199t40.5 -199t109 -163.5t163 -109t198.5 -40.5q94 0 182.5 34.5t160.5 98.5q16 15 10 37t-30 25q-122 14 -204 106.5t-82 216.5q-1 122 76.5 213
t196.5 109zM563 391q0 -129 75.5 -233t196.5 -145q-109 -69 -236 -69q-89 0 -170 35t-140 94t-93.5 140t-34.5 170t35 170.5t93.5 140t139.5 93.5t170 35q118 0 221 -59q-115 -43 -186 -144.5t-71 -227.5z" />
    <glyph glyph-name="note" unicode="&#xe698;" 
d="M720 896h-400q-14 0 -23.5 -9.5t-9.5 -23.5v-47h-148q-14 0 -23.5 -9.5t-9.5 -23.5v-878q0 -14 9.5 -23.5t23.5 -9.5h746q14 0 24 9.5t10 23.5v878q0 14 -10 23.5t-24 9.5h-132v47q0 14 -9.5 23.5t-23.5 9.5zM353 783v46h334v-104h-334v58zM852 750v-811h-679v811h114
v-59q0 -14 9.5 -23.5t23.5 -9.5h400q14 0 23.5 9.5t9.5 23.5v59h99v0zM761 319h-482q-14 0 -23.5 -9.5t-9.5 -23.5t9.5 -24t23.5 -10h482q14 0 23.5 10t9.5 24t-9.5 23.5t-23.5 9.5zM520 158h-241q-14 0 -23.5 -9.5t-9.5 -23.5t9.5 -24t23.5 -10h241q14 0 23.5 10t9.5 24
t-9.5 23.5t-23.5 9.5zM246 447q0 -14 9.5 -23.5t23.5 -9.5h482q14 0 23.5 9.5t9.5 23.5t-9.5 24t-23.5 10h-482q-14 0 -23.5 -10t-9.5 -24v0z" />
    <glyph glyph-name="pause" unicode="&#xe699;" 
d="M512 -128q139 0 257 68.5t186.5 186.5t68.5 257t-68.5 257t-186.5 186.5t-257 68.5t-257 -68.5t-186.5 -186.5t-68.5 -257t68.5 -257t186.5 -186.5t257 -68.5zM512 825q89 0 170.5 -35t141 -94t94.5 -140.5t35 -171.5t-35 -171.5t-94 -140.5t-140.5 -94t-171.5 -35
t-171.5 35t-140.5 94t-94 140.5t-35 171.5t35 171.5t94.5 140.5t141 94t170.5 35zM418 118v0q15 0 25.5 10.5t10.5 25.5v0v468v0q0 15 -10.5 25.5t-25.5 10.5v0h-1q-14 0 -24.5 -10.5t-10.5 -25.5v0v-468q0 -15 10.5 -25.5t25.5 -10.5v0zM606 118h1q14 0 24.5 10.5
t10.5 25.5v0v468v0q0 15 -10.5 25.5t-24.5 10.5h-1v0q-15 0 -25.5 -10.5t-10.5 -25.5v0v-468q0 -15 10.5 -25.5t25.5 -10.5v0z" />
    <glyph glyph-name="paint" unicode="&#xe69a;" 
d="M521 -128q15 0 25.5 10.5t10.5 25.5v311h325q15 0 25.5 10.5t10.5 25.5v605q0 15 -10.5 25.5t-25.5 10.5h-722q-15 0 -25.5 -10.5t-10.5 -25.5v-604q0 -15 10.5 -25.5t25.5 -10.5h324v-311q0 -16 11 -26.5t26 -10.5zM197 823h107v-128q0 -15 10.5 -25.5t25.5 -10.5
t25.5 10.5t10.5 25.5v128h109v-209q0 -16 11 -26.5t25 -10.5q15 0 25.5 11t10.5 26v209h108v-128q0 -15 10.5 -25.5t25.5 -10.5t25.5 10.5t10.5 25.5v128h107v-402h-647v402zM197 292v57h649v-57h-649z" />
    <glyph glyph-name="power" unicode="&#xe69b;" 
d="M512 -128q104 0 199 40.5t163.5 109t109 163.5t40.5 199q0 181 -111.5 320.5t-287.5 179.5q-14 3 -27 -5t-16 -22.5t5 -27.5t22 -16q152 -34 248 -153.5t96 -275.5q0 -89 -35 -171t-94 -141t-140.5 -93.5t-171 -34.5t-171 34.5t-140.5 93.5t-94 141t-35 171
q0 155 95 274.5t246 154.5q11 3 19.5 13t8.5 22q0 4 -1 8q-3 12 -13 20.5t-22 8.5q-4 0 -8 -1q-175 -41 -286 -180.5t-111 -319.5q0 -104 40.5 -199t109.5 -163.5t163.5 -109t198.5 -40.5zM476 860v-476q0 -15 10.5 -25.5t26 -10.5t26 10.5t10.5 25.5v476q0 15 -10.5 25.5
t-26 10.5t-26 -10.5t-10.5 -25.5z" />
    <glyph glyph-name="play" unicode="&#xe69c;" 
d="M512 -128q139 0 257 68.5t186.5 186.5t68.5 257t-68.5 257t-186.5 186.5t-257 68.5t-257 -68.5t-186.5 -186.5t-68.5 -257t68.5 -257t186.5 -186.5t257 -68.5zM512 824q89 0 170.5 -35t140.5 -94t94 -140.5t35 -170.5t-35 -170.5t-94 -140.5t-140.5 -94t-170.5 -35
t-170.5 35t-140.5 94t-94 140.5t-35 170.5t35 170.5t94 140.5t140.5 94t170.5 35zM412 120q6 -3 14 -3q15 0 25 11l233 233q10 11 10 26q0 16 -10 25l-234 233q-16 17 -39 8q-22 -9 -22 -33v-466q0 -24 23 -34zM461 533l146 -146l-146 -146v292z" />
    <glyph glyph-name="placeholder" unicode="&#xe69d;" 
d="M512.5 896q-110.5 0 -204 -55t-148 -149t-54.5 -205q0 -42 8 -81q0 -1 0.5 -3t0.5 -4q12 -56 55 -130t90.5 -135t104 -123.5t83 -89.5t40.5 -39q9 -10 24 -10q14 0 25 10q330 331 371 513q0 1 0.5 2.5t0.5 2.5q9 41 9 87q0 111 -54 205t-147.5 149t-204 55zM839 414v-3
q-12 -51 -53 -119.5t-97 -136t-97 -113t-80 -84.5q-38 40 -79 85t-97.5 113t-97.5 137t-53 121q0 3 -1 5q-7 37 -7 69q0 91 45 168.5t122 123t167.5 45.5t168 -45.5t122.5 -123t45 -168.5q0 -39 -8 -74v0zM512.5 666q-56.5 0 -96.5 -40.5t-40 -96.5t40 -96.5t96.5 -40.5
t96.5 40t40 97t-40 97t-96.5 40zM512 464v0q-26 0 -45.5 19t-19.5 46v0q0 27 19.5 46t46 19t45.5 -19t19 -46v0q0 -27 -19 -46t-46 -19z" />
    <glyph glyph-name="profile" unicode="&#xe69e;" 
d="M510 332q114 0 194 80t80 193.5t-80 193t-193.5 79.5t-194 -80t-80.5 -192.5t80.5 -193t193.5 -80.5v0zM510.5 807q83.5 0 142.5 -59t59 -142.5t-59 -142.5t-142.5 -59t-142.5 59t-59 142.5t59 142.5t142.5 59zM36 -95h952v0q15 0 25.5 10.5t10.5 25.5v0q0 93 -46 172
t-125 125t-173 46h-336q-93 0 -172.5 -46t-125.5 -125t-46 -172v0q0 -15 10.5 -25.5t25.5 -10.5v0zM344 212h336q103 0 179.5 -67.5t89.5 -167.5h-874q13 100 89.5 167.5t179.5 67.5z" />
    <glyph glyph-name="presentation" unicode="&#xe69f;" 
d="M36 638h58v-420q0 -15 10.5 -25.5t25.5 -10.5h132l-163 -254q-8 -13 -5 -27.5t15 -22.5q10 -5 20 -5q20 0 30 17l188 292h328l188 -293q12 -17 30 -17q11 0 20 5q12 8 15.5 22.5t-5.5 27.5l-162 255h133q15 0 25.5 10.5t10.5 25.5v420h58q15 0 25.5 10.5t10.5 25.5v186
q0 15 -10.5 25.5t-25.5 10.5h-952q-15 0 -25.5 -10.5t-10.5 -25.5v-186q0 -16 10.5 -26t25.5 -10v0zM858 253h-153q-12 4 -24 0h-515v385h693v-385h-1zM71 824h880v-114h-879v114h-1zM273 324q15 0 25 10l58 58l118 -31q21 -6 37 11l120 143q10 11 8.5 26t-12.5 25
q-12 10 -26.5 8.5t-24.5 -12.5l-106 -126l-117 30q-20 6 -34 -9l-73 -73q-10 -10 -10 -25t10 -26q13 -9 27 -9z" />
    <glyph glyph-name="printer" unicode="&#xe6a0;" 
d="M36 27h202v-119q0 -15 10.5 -25.5t25.5 -10.5h476v0q15 0 25.5 10.5t10.5 25.5v0v119h202v0q15 0 25.5 10.5t10.5 25.5v0v642v0q0 15 -10.5 25.5t-25.5 10.5v0h-202v119v0q0 15 -10.5 25.5t-25.5 10.5v0h-476v0q-15 0 -25.5 -10.5t-10.5 -25.5v0v-119h-202v0
q-15 0 -25.5 -10.5t-10.5 -25.5v0v-642q0 -14 11 -25t25 -11v0zM714 -56h-404v298h404v-298zM310 824h404v-83h-404v83zM72 669h880v-570h-166v143h64h1q15 0 25.5 10.5t10.5 25.5v0v1q0 14 -10.5 24.5t-25.5 10.5h-1h-676v0q-15 0 -25.5 -10.5t-10.5 -24.5v-1
q0 -15 10.5 -25.5t25.5 -10.5h65v-143h-167v570zM703 483h94v0q15 0 25.5 10.5t10.5 24.5v1v0q0 15 -10.5 25.5t-25.5 10.5v0h-94v0q-15 0 -25.5 -10.5t-10.5 -25.5v0q0 -15 10.5 -25.5t25.5 -10.5z" />
    <glyph glyph-name="prohibition" unicode="&#xe6a1;" 
d="M512 896q-104 0 -199 -40.5t-163.5 -109t-109 -163.5t-40.5 -199q0 -103 39 -196t109 -163q1 -1 1 -2q1 0 1 -1q71 -71 164.5 -110.5t197.5 -39.5t199 40.5t163.5 109t109 163.5t40.5 199t-40.5 198.5t-109 163.5t-163.5 109.5t-199 40.5zM72 384q0 90 34.5 171t93.5 140
t141 94t171 35q160 0 284 -104l-619 -620q-105 124 -105 284zM512 -56v0q-67 0 -150.5 31t-134.5 74l620 619q43 -50 74 -133.5t31 -150.5v0q0 -89 -35 -170.5t-93.5 -140.5t-140.5 -94t-171 -35z" />
    <glyph glyph-name="push-pin" unicode="&#xe6a2;" 
d="M512 -128q15 0 25.5 10.5t10.5 25.5v273h369q16 0 26 10.5t10 25.5v1q0 15 -10 25.5t-25 10.5h-1h-32l-106 570h86q15 0 25.5 10.5t10.5 25.5v0q0 15 -10.5 25.5t-25.5 10.5v0h-706q-15 0 -25.5 -10.5t-10.5 -25.5t10.5 -25.5t25.5 -10.5h86l-106 -570h-32
q-16 0 -26 -10.5t-10 -26t10 -26t26 -10.5h370v-273q-1 -14 9.5 -25t25.5 -11zM212 254l106 569h388l106 -569h-600z" />
    <glyph glyph-name="refresh" unicode="&#xe6a3;" 
d="M989 896q-16 0 -26.5 -10.5t-10.5 -25.5v-214q-68 115 -185.5 182.5t-254.5 67.5q-104 0 -199 -40.5t-163.5 -109t-109 -163.5t-40.5 -199.5t40.5 -199t109 -163t163.5 -109t199 -40.5t199 40.5t163.5 109t109 163.5t40.5 199q0 15 -10.5 25.5t-25.5 10.5t-25.5 -10.5
t-10.5 -25.5q0 -90 -35 -171.5t-94 -140.5t-140.5 -94t-171 -35t-171 35.5t-140.5 94.5t-93.5 140.5t-34.5 171t34.5 171t93.5 140.5t141 94t171 35q130 0 238.5 -70t161.5 -187h-253q-16 0 -26.5 -10.5t-10.5 -25.5t10.5 -25.5t26.5 -10.5h329q15 0 25.5 10.5t10.5 25.5
v329q0 14 -10.5 24.5t-24.5 10.5z" />
    <glyph glyph-name="remove" unicode="&#xe6a4;" 
d="M512 -128q104 0 198.5 40.5t163.5 109.5t109.5 163.5t40.5 198.5t-40.5 198.5t-109.5 163.5t-163.5 109.5t-198.5 40.5t-198.5 -40.5t-163.5 -109.5t-109.5 -163.5t-40.5 -198.5t40.5 -198.5t109.5 -163.5t163.5 -109.5t198.5 -40.5zM512 824q89 0 170.5 -34.5
t140.5 -93.5t94 -140.5t35 -171.5t-34.5 -171.5t-93.5 -140.5t-140.5 -93.5t-171.5 -34.5t-171.5 35t-140.5 94t-93.5 140.5t-34.5 170.5t35 170.5t94 140.5t140.5 94t170.5 35zM276 353h471h1q14 0 24.5 10.5t10.5 25.5v0v1q0 15 -10.5 25.5t-24.5 10.5h-1h-471h-1
q-14 0 -24.5 -10.5t-10.5 -25.5v-1q0 -15 10.5 -25.5t25.5 -10.5z" />
    <glyph glyph-name="rewind" unicode="&#xe6a5;" 
d="M544 646q-7 3 -14 3q-15 0 -25 -11l-230 -237q-10 -11 -10 -26t10 -26l231 -237q10 -10 25 -10q7 0 14 2q21 9 21 34v128l150 -154q10 -10 25 -10q8 0 14 2q22 9 22 34v474q0 25 -22 34q-6 3 -14 3q-15 0 -25 -11l-150 -154v128q0 24 -22 34zM494 396v-169l-143 148
l144 149v-128h-1zM704 524v-297l-139 143v11z" />
    <glyph glyph-name="right" unicode="&#xe6a6;" 
d="M309 -117q-11 -11 -26 -11t-25.5 10.5t-10.5 25.5t11 26l449 450l-449 450q-11 11 -11 26t10.5 25.5t25.5 10.5t26 -11l475 -475q10 -11 10 -26t-10 -26z" />
    <glyph glyph-name="screen" unicode="&#xe6a7;" 
d="M37 434h390q15 0 25.5 10.5t10.5 25.5v390v0q0 15 -10.5 25.5t-25.5 10.5v0h-390q-15 0 -25.5 -10.5t-10.5 -25.5v-390q0 -15 10.5 -25.5t25.5 -10.5v0zM72 824h318v-318h-318v318v0zM987 434q15 0 25.5 10.5t10.5 25.5v390v0q0 15 -10.5 25.5t-24.5 10.5h-1h-389
q-16 0 -26 -10.5t-10 -25.5v-390q0 -15 10 -25.5t26 -10.5h389v0zM634 824h317v-318h-317v318v0zM37 226q-15 0 -25.5 -10.5t-10.5 -26t10.5 -26t25.5 -10.5l951 -1q15 0 25.5 10.5t10.5 26.5v0q0 15 -10.5 25.5t-25.5 10.5v0zM36 -127l951 -1q15 0 25.5 10.5t10.5 25.5v1
q0 14 -10.5 24.5t-24.5 10.5h-1l-951 1q-15 0 -25.5 -10.5t-10.5 -25.5t11 -25.5t25 -10.5v0z" />
    <glyph glyph-name="rocket" unicode="&#xe6a8;" 
d="M828.5 18q15.5 0 26 10.5t10.5 25.5v74q0 112 -82 188q7 40 7 68q0 70 -26 147t-59.5 135t-74 111t-62 76.5t-30.5 31.5q-11 11 -26 11v0v0q-15 0 -26 -11l-2 -2q-17 -18 -36 -39t-60.5 -77.5t-72 -110.5t-55 -129t-24.5 -143q0 -33 6 -66q-83 -79 -83 -190v-74
q0 -15 10.5 -25.5t26 -10.5t26 10.5t10.5 25.5v74q0 55 31 104q15 -46 44 -101q9 -19 32 -19h137v-58q0 -15 11 -25.5t26 -10.5t25.5 10.5t10.5 25.5v58h138q21 0 33 19q26 48 43 99q12 -19 21 -49t9 -53v-74q-1 -15 9.5 -25.5t26 -10.5zM664 184h-116v58q0 15 -10.5 25.5
t-25.5 10.5t-25.5 -10.5t-10.5 -25.5v-58h-114q-32 67 -44 124q0 2 -2 7q-7 38 -7 69q0 61 22 128t58 125t65 97t58 72q30 -33 59 -71.5t65 -97t58.5 -125.5t22.5 -128q0 -91 -53 -200zM382 485.5q0 -53.5 38.5 -91.5t93 -38t93 38t38.5 92t-38.5 92t-93 38t-93 -38.5
t-38.5 -92zM514 543q24 0 41 -17t17 -41t-17 -41t-41 -17t-41.5 17t-17.5 41t17.5 41t41.5 17zM347 -92v120q0 15 -11 25.5t-26 10.5t-25.5 -10.5t-10.5 -25.5v-120q0 -15 10.5 -25.5t25.5 -10.5t26 10.5t11 25.5v0zM750 -92v120q0 15 -10.5 25.5t-25.5 10.5t-26 -10.5
t-11 -25.5v-120q0 -15 11 -25.5t26 -10.5t25.5 10.5t10.5 25.5v0z" />
    <glyph glyph-name="search" unicode="&#xe6a9;" 
d="M398 99q145 0 255 93l309 -309q11 -11 26 -11t25.5 10.5t10.5 25.5t-11 26l-309 309q93 111 93 255q0 108 -53.5 199.5t-145 145t-200.5 53.5q-107 0 -199 -53.5t-145.5 -145.5t-53.5 -199q0 -109 53.5 -200.5t145.5 -145t199 -53.5zM398 824q89 0 164 -44t118.5 -119
t43.5 -163q0 -89 -43.5 -164t-118.5 -118.5t-163.5 -43.5t-163.5 43.5t-119 118.5t-44 163.5t44 163.5t119 119t163 44v0z" />
    <glyph glyph-name="settings-" unicode="&#xe6aa;" 
d="M99 -91q0 -15 10.5 -25.5t25.5 -10.5t25.5 10.5t10.5 25.5v718q45 12 73.5 48.5t28.5 83.5q0 57 -40 97t-97 40t-96.5 -40t-39.5 -97q0 -46 28 -83t72 -49v-718h-1zM71 759.5q0 26.5 19 45.5t45.5 19t45.5 -19t19 -45.5t-19 -45.5t-45.5 -19t-45.5 19t-19 45.5zM511 896
q-15 0 -25.5 -10.5t-10.5 -25.5v-373q-41 -12 -70.5 -50.5t-29.5 -81.5v0q0 -46 28 -82.5t72 -48.5v-316q0 -15 10.5 -25.5t25.5 -10.5t25.5 10.5t10.5 25.5v316q45 12 73.5 48.5t28.5 83.5t-28.5 84t-73.5 49v371q0 15 -10.5 25.5t-25.5 10.5zM577 355q0 -26 -19 -45
t-45.5 -19t-45.5 19t-19 45.5t19 45.5t46 19t45.5 -19t18.5 -46zM923 141v719q0 15 -10.5 25.5t-25.5 10.5t-25.5 -10.5t-10.5 -25.5v-719q-44 -12 -72.5 -48.5t-28.5 -82.5q0 -57 40 -97t97 -40t97 40t40 97q1 46 -27.5 82.5t-73.5 48.5v0zM888.5 -55q-26.5 0 -45.5 19
t-19 45.5t19 45.5t45.5 19t45 -19t18.5 -45.5t-18.5 -45.5t-45 -19z" />
    <glyph glyph-name="settings-1" unicode="&#xe6ab;" 
d="M988 413h-183q-12 41 -47 68t-78 27t-77.5 -26.5t-46.5 -68.5h-520q-15 0 -25.5 -10.5t-10.5 -26t10.5 -26t25.5 -10.5h519q12 -43 46.5 -70t79 -27t79 27t45.5 70h183q15 0 25.5 10.5t10.5 26.5q-1 14 -11.5 25t-24.5 11zM680 316q-24 0 -41 17.5t-17 41.5t17 41
t40.5 17t40.5 -17t17 -41v-2q0 -24 -16.5 -40.5t-40.5 -16.5z" />
    <glyph glyph-name="share" unicode="&#xe6ac;" 
d="M332 247q35 0 68 19l191 -189q-19 -33 -19 -68q0 -57 40.5 -97t97 -40t97 40.5t40.5 96.5q0 57 -40.5 97t-96.5 40q-36 0 -69 -19l-189 189q19 33 19 68.5t-19 67.5l189 189q33 -19 69 -19q57 0 97 40.5t40 96.5t-40.5 96.5t-97 40.5t-97 -40.5t-40.5 -96.5q0 -35 19 -68
l-191 -187q-30 17 -68 17q-57 0 -97.5 -40t-40.5 -96.5t40.5 -97t97.5 -40.5zM711 73v0q27 0 46 -19t19 -46t-19 -46t-46 -19v0h-1q-27 0 -46 19t-19 46t19 46t46 19h1zM711 825v0q27 0 46 -19t19 -46t-19 -46t-46 -19v0h-1q-27 0 -46 19t-19 46t19 46t46 19h1zM332 450v0
q27 0 46.5 -19t19.5 -46.5t-19.5 -46.5t-46.5 -19v0v0q-27 0 -46.5 19t-19.5 46t19.5 46.5t46.5 19.5z" />
    <glyph glyph-name="shield" unicode="&#xe6ad;" 
d="M989 656q-8 0 -26.5 2t-68 15t-100.5 34.5t-121.5 68.5t-133.5 109q-11 11 -26 11v0h-4q-15 0 -25 -11q-63 -62 -133 -109t-121 -68.5t-100.5 -34.5t-68 -15t-26.5 -2q-14 0 -24.5 -10.5t-10.5 -25.5v-234q0 -6 3 -13q4 -10 11.5 -27.5t30.5 -59.5t49.5 -83t69.5 -93
t90.5 -94.5t112 -81.5t133.5 -60q7 -2 10 -2h4q3 0 10 2q69 21 133.5 60t112 81.5t90.5 94t69.5 93t49.5 83.5t30.5 59.5t11.5 27.5q3 7 3 13v234q0 14 -10.5 24.5t-24.5 11.5zM952 393q-7 -16 -16 -35t-31.5 -57.5t-47 -74.5t-62.5 -80t-78.5 -80t-94 -69t-110.5 -52
q-57 19 -110.5 52t-94 69t-78.5 80t-62.5 80t-46.5 74.5t-31.5 58.5t-16.5 35v193q35 5 75.5 16t100 34t129 68.5t135.5 106.5q66 -61 135.5 -106.5t129 -68.5t100 -34t75.5 -16v-194z" />
    <glyph glyph-name="setttings" unicode="&#xe6ae;" 
d="M36 490q-15 0 -25.5 -10.5t-10.5 -25.5v-142q0 -15 10.5 -25.5t25.5 -10.5h66q15 -57 45 -107l-46 -46q-10 -11 -10 -26t10 -25l100 -100q10 -11 25 -11t26 11l47 47q50 -30 107 -45v-66q0 -15 10.5 -25.5t25.5 -10.5h141q16 0 26.5 10.5t10.5 25.5v67q54 14 106 44
l48 -47q10 -11 25 -11t26 11l99 100q11 10 11 25t-11 26l-47 47q30 52 44 107h67q15 0 25.5 10.5t10.5 25.5v142q0 15 -10.5 25.5t-25.5 10.5h-67q-14 55 -44 107l47 47q11 11 11 26t-11 25l-100 99q-11 11 -26 11t-25 -11l-47 -46q-51 29 -107 45v66q0 15 -10.5 25.5
t-25.5 10.5h-141q-16 0 -26.5 -10.5t-10.5 -25.5v-66q-56 -15 -107 -45l-47 47q-10 11 -25 11t-26 -11l-100 -100q-10 -11 -10 -26t10 -26l46 -45q-30 -51 -45 -109h-65zM167 448q12 71 55 135q7 10 6 23t-10 23l-41 41l49 49l41 -42q9 -9 22 -10.5t24 6.5q60 42 135 55
q12 3 21 13t9 23v59h68v-59q0 -14 8.5 -24t20.5 -12q71 -13 134 -55q11 -8 24 -6.5t22 10.5l43 42l48 -48l-42 -42q-10 -10 -11 -23t6 -23q17 -26 33.5 -65t22.5 -70q2 -12 12.5 -21t22.5 -9h60v-68h-60q-13 0 -23 -8.5t-12 -21.5q-14 -73 -56 -134q-7 -10 -6 -23t11 -23
l42 -42l-48 -49l-43 43q-9 9 -22 10.5t-24 -6.5q-25 -17 -64 -33.5t-70 -21.5q-12 -3 -20.5 -13t-8.5 -23v-59h-68v59q0 14 -8.5 24t-21.5 12q-31 5 -70.5 21.5t-64.5 33.5q-9 6 -20 6q-15 0 -26 -10l-41 -42l-49 46l42 42q9 9 10 22t-6 24q-41 59 -56 135q-3 12 -13 20.5
t-23 8.5h-58v69h58q13 0 23 9.5t13 21.5zM511.5 130q102.5 0 175 72.5t72.5 175t-72.5 175.5t-175 73t-175.5 -73t-73 -175.5t73 -175t175.5 -72.5zM511 553q73 0 124 -51t51 -124t-51 -124.5t-124 -51.5t-124 51.5t-51 124.5t51 124t124 51z" />
    <glyph glyph-name="shopping" unicode="&#xe6af;" 
d="M36 75h43q-23 -39 -17 -85t39 -78q40 -40 97 -40q56 0 97 40q40 39 40 97q0 35 -18 66h171q-22 -39 -16.5 -85t38.5 -78q40 -40 97 -40q56 0 98 40q39 39 39 97q0 35 -17 66h46v0q15 0 25.5 10.5t10.5 25.5v0v1q0 14 -10.5 24.5t-25.5 10.5v0h-701v71h796q12 0 21.5 7.5
t13.5 19.5l120 438q4 18 -6 31q-12 14 -29 14h-916v132v0q0 15 -10.5 25.5t-24.5 10.5h-1v0q-15 0 -25.5 -10.5t-10.5 -25.5v0v-748q0 -16 10.5 -26.5t25.5 -10.5zM560 55q20 19 46.5 19t46 -19.5t19.5 -46t-20 -45.5q-18 -19 -45.5 -19t-46.5 19t-19 46t19 46zM152 55
q19 19 46 19t46 -19.5t19 -46t-19 -45.5t-46 -19t-46 19t-19 46t19 46zM72 657h869l-101 -367h-768v367z" />
    <glyph glyph-name="speech" unicode="&#xe6b0;" 
d="M36 97h116v-118q0 -23 21 -33q7 -3 16 -3q12 0 22 7l193 146h584v0q15 0 25.5 10.5t10.5 25.5v0v640v0q0 15 -10.5 25.5t-25.5 10.5v0h-952v0q-15 0 -25.5 -10.5t-10.5 -25.5v0v-639q0 -15 10.5 -25.5t25.5 -10.5zM252 503h520v0q15 0 25.5 10.5t10.5 25.5v0v1
q0 14 -10.5 24.5t-25.5 10.5v0h-520v0q-15 0 -25.5 -10.5t-10.5 -24.5v-1v0q0 -15 10.5 -25.5t25.5 -10.5v0v0zM252 330h520v0q15 0 25.5 10t10.5 25v1v0q0 15 -10.5 25t-25.5 10v0h-520v0q-15 0 -25.5 -10t-10.5 -25v0v-1q0 -15 10.5 -25t25.5 -10v0v0zM72 736h879v-567
h-559q-12 0 -22 -7l-145 -111v82v0q0 15 -10.5 25.5t-25.5 10.5v0h-117v567z" />
    <glyph glyph-name="stats" unicode="&#xe6b1;" 
d="M988 -56h-916v916q0 15 -10.5 25.5t-25.5 10.5t-25.5 -10.5t-10.5 -25.5v-952q0 -15 10.5 -25.5t25.5 -10.5h952q15 0 25.5 10.5t10.5 25.5t-10.5 25.5t-25.5 10.5zM422 84v520q0 15 -10 25.5t-25.5 10.5t-26 -10.5t-10.5 -25.5v-520q0 -16 10.5 -26t26 -10t25.5 10
t10 26zM248 84v520q0 15 -10.5 25.5t-26 10.5t-25.5 -10.5t-10 -25.5v-520q0 -16 10 -26t25.5 -10t26 10t10.5 26zM772 84v520q0 15 -10.5 25.5t-26 10.5t-26 -10.5t-10.5 -25.5v-520q0 -16 10.5 -26t26 -10t26 10t10.5 26zM946 84v260q0 15 -10.5 25.5t-25.5 10.5
t-25.5 -10.5t-10.5 -25.5v-260q0 -16 10.5 -26t25.5 -10t25.5 10t10.5 26zM597 84v260q0 15 -10.5 25.5t-25.5 10.5t-25.5 -10.5t-10.5 -25.5v-260q0 -16 10.5 -26t25.5 -10t25.5 10t10.5 26z" />
    <glyph glyph-name="switch" unicode="&#xe6b2;" 
d="M274 102h476q113 0 193.5 80t80.5 193.5t-80 193.5t-194 80h-476q-113 0 -193.5 -80t-80.5 -193.5t80.5 -193.5t193.5 -80zM274 577h476q83 0 142.5 -59.5t59.5 -142.5t-59.5 -142t-142.5 -59h-476q-83 0 -142.5 59t-59.5 142t59.5 142.5t142.5 59.5zM274 223
q63 0 108 44.5t45 107.5t-45 107.5t-108 44.5t-107.5 -44.5t-44.5 -107.5t44.5 -107.5t107.5 -44.5zM274 455q33 0 56.5 -23.5t23.5 -56.5t-23.5 -56.5t-56.5 -23.5t-56.5 23.5t-23.5 56.5t23.5 56.5t56.5 23.5z" />
    <glyph glyph-name="store" unicode="&#xe6b3;" 
d="M1014 555l-1 6q-1 2 -1 3l-111 308q-4 10 -14 17t-20 7v0h-711q-11 0 -20.5 -6.5t-13.5 -17.5l-110 -306q0 -1 -0.5 -3l-0.5 -2l-4 -11q-2 -5 -2 -9q-5 -20 -5 -37q0 -49 28.5 -89t73.5 -56v-451v0q0 -15 10.5 -25.5t25.5 -10.5v0h762v0q15 0 25.5 10.5t10.5 25.5v0v457
q40 20 64 57t24 82q0 15 -4 34q-1 9 -6 17zM863 -56h-689v407q1 0 3 0.5t3 0.5q57 9 94 54q46 -56 119 -56q72 0 119 56q45 -56 118 -56q72 0 119 56q13 -16 36 -31t43 -20l1 -0.5t2 -0.5q7 -1 11 -2q1 0 3 -0.5t3 -0.5q2 0 5 -0.5t4 -0.5t3 -0.5t3 -0.5v-405v0zM891 425
q-1 0 0 0q-4 -1 -11 -3q-4 -1 -12 -1q-5 0 -15 2q-3 1 -7 2t-6 2q-1 0 -1 1q-22 8 -36 27.5t-16 42.5v6v1q0 14 -10.5 24.5t-25.5 10.5v0h-1q-14 0 -24.5 -10.5t-10.5 -24.5v-1q0 -3 -1 -5v-1q-2 -21 -17 -41.5t-35 -28.5q-1 0 -2 -1q-4 -2 -13 -4q-11 -2 -16 -2t-16 2
q-2 1 -6.5 2t-5.5 2q-1 0 -2 1q-21 8 -35.5 27.5t-16.5 42.5v2q0 1 -0.5 2t-0.5 2v1q0 14 -10 24.5t-25 10.5h-1v0q-15 0 -25.5 -10.5t-10.5 -24.5v-1v-5v-1q-2 -21 -17.5 -41.5t-34.5 -28.5q-1 0 -2 -1q-4 -2 -13 -4q-11 -2 -16 -2t-16 2q-2 1 -6.5 2t-6.5 2q-1 0 -2 1
q-21 8 -35.5 27.5t-16.5 42.5v6v1q0 14 -10.5 24.5t-24.5 10.5h-1v0q-15 0 -25.5 -10.5t-10.5 -24.5v-1q0 -3 -1 -5v-1q-1 -21 -16.5 -41.5t-35.5 -28.5l-1 -1q-6 -2 -13 -4q-10 -2 -15 -2q-2 0 -5 0.5t-4 0.5q-2 0 -4 1h-2q-30 6 -49.5 28.5t-19.5 53.5q0 11 4 23v1.5v1.5
l106 294h659l103 -286q1 -2 1 -3l2 -5q0 -1 0.5 -2t0.5 -2q3 -12 3 -23q0 -27 -17 -49t-43 -30v0z" />
    <glyph glyph-name="tag" unicode="&#xe6b4;" 
d="M1013 367l-518 518q-12 12 -30 11l-388 -44q-13 -2 -22 -11t-11 -22l-44 -388q-1 -18 11 -30l517 -518q11 -11 27 -11q14 0 26 11l432 432q11 11 11 27q-2 15 -11 25v0zM76 440l39 341l340 39l352 -352l-379 -380zM555 -39l-74 74l379 380l74 -74l-379 -380v0zM425 669
q-17 17 -46 29.5t-53 12.5v0q-57 0 -100 -42q-41 -41 -41 -99.5t41 -99.5q17 -17 46 -29t53 -12h1q56 0 99 41q17 17 29.5 46.5t12.5 53.5v0q0 58 -42 99v0zM373 523q-18 -19 -46.5 -19t-47.5 19t-19 46.5t19 47.5q19 19 46.5 19t47 -19t19.5 -47q1 -26 -19 -47v0z" />
    <glyph glyph-name="target" unicode="&#xe6b5;" 
d="M36 348h80q12 -143 114.5 -245.5t245.5 -114.5v-80q0 -14 10.5 -25t25.5 -11t25.5 10.5t10.5 25.5v80q143 12 245.5 114.5t114.5 245.5h80q15 0 25.5 10.5t10.5 25.5t-10.5 25.5t-25.5 10.5h-80q-12 143 -114.5 245.5t-245.5 114.5v80q0 15 -10.5 25.5t-25.5 10.5
t-25.5 -10.5t-10.5 -25.5v-80q-143 -12 -245.5 -114.5t-114.5 -245.5h-80v0q-15 0 -25.5 -10.5t-10.5 -25.5v0q0 -15 11 -25.5t25 -10.5zM334 420h-146q13 114 94 195t194 93v-146q0 -15 10.5 -26t25.5 -10.5t25.5 11t10.5 25.5v146q114 -13 195 -94t93 -194h-146
q-15 0 -25.5 -10.5t-11 -25.5t10.5 -25.5t26 -10.5h146q-13 -114 -94 -195t-194 -93v146q0 15 -10.5 25.5t-25.5 10.5t-25.5 -10.5t-10.5 -25.5v-146q-114 13 -195 94t-93 194h146q15 0 25.5 10.5t11.5 25.5q0 15 -11 25.5t-26 10.5z" />
    <glyph glyph-name="unlock" unicode="&#xe6b6;" 
d="M516 824q118 0 201.5 -83t83.5 -201v0q0 -15 10.5 -25.5t25.5 -10.5h1v0q15 0 25.5 10.5t10.5 25.5v0q0 97 -48 179t-130.5 129.5t-179.5 47.5t-179.5 -48t-130 -130t-47.5 -178v-632v0q0 -15 10.5 -25.5t25.5 -10.5v0h651h1q15 0 25.5 10.5t10.5 25.5v0v404v0
q0 15 -10.5 25.5t-25.5 10.5h-1h-615v192q0 117 83.5 200.5t201.5 83.5zM810 276v-332h-579v332h579v0zM521 52v0q25 0 42 17t17 41t-17 41t-42 17v0v0q-24 0 -41 -17t-17 -41t17 -41t41 -17v0z" />
    <glyph glyph-name="timer" unicode="&#xe6b7;" 
d="M53 333q0 -94 36.5 -179t98 -147t146.5 -98.5t178 -36.5t178 36.5t146.5 98.5t98 147t36.5 179v1q0 78 -39 173.5t-95 150.5l36 37l17 -17q11 -11 26 -11t25.5 10.5t10.5 25.5t-11 26l-83 84q-11 11 -26 11t-25.5 -11t-10.5 -26t11 -25l16 -17l-39 -40q-104 77 -235 88
v31h80q15 0 25.5 10.5t10.5 25.5v0q0 15 -10.5 25.5t-25.5 10.5v0h-237q-16 0 -26.5 -10.5t-10.5 -25.5t10.5 -25.5t26.5 -10.5h85v-31q-117 -10 -214.5 -73t-153.5 -165.5t-56 -221.5zM512 722q105 0 194.5 -52.5t141.5 -142t52 -195t-52 -195.5t-141.5 -142t-194.5 -52
t-194.5 52t-141.5 142t-52 195q0 106 52 196t141.5 142t194.5 52zM512 303h154q15 0 25.5 10.5t10.5 25.5v1q0 15 -10.5 25.5t-25.5 10.5v0h-118v186v0q0 15 -10.5 25.5t-25.5 10.5v0q-15 0 -25.5 -10.5t-10.5 -25.5v-223q0 -15 10.5 -25.5t25.5 -10.5v0z" />
    <glyph glyph-name="up" unicode="&#xe6b8;" horiz-adv-x="1025" 
d="M1014.5 112.5q-10.5 -10.5 -25.5 -10.5t-26 10l-449 450l-451 -450q-11 -11 -26 -11t-25.5 11t-10.5 26t11 25l475 475q11 11 26 11t25 -11l476 -475q11 -10 11 -25t-10.5 -25.5z" />
    <glyph glyph-name="upload" unicode="&#xe6b9;" 
d="M663 896v0q-123 0 -226 -85t-127 -205q-48 19 -96 17q-90 -3 -152 -70t-62 -160q0 -91 64 -155t154 -64v0q15 0 25.5 10.5t10.5 25.5v1v0q0 15 -10.5 25.5t-25.5 10.5v0q-60 0 -103 42.5t-43 103.5q0 63 42.5 110t102.5 49q55 3 101 -31q17 -13 36.5 -4.5t21.5 31.5
q4 116 87.5 197t199.5 81q120 0 204.5 -85t84.5 -204q0 -8 -1 -11v-13q-2 -111 -81 -188.5t-190 -77.5v0q-15 0 -25.5 -10.5t-10.5 -25.5v0q0 -16 10.5 -26.5t25.5 -10.5q93 0 172 46t125 125.5t46 172.5v4q0 2 0.5 7t0.5 8q0 97 -48.5 180t-131.5 131t-181 48zM490 288
q-11 11 -26 11t-25 -11l-233 -233q-11 -11 -11 -26t10.5 -25.5t25.5 -10.5t26 10l171 172v-267q0 -15 10.5 -25.5t25.5 -10.5h1q15 0 25 10.5t10 25.5v0v267l171 -171q11 -10 26 -10t25.5 10.5t10.5 25.5t-11 25z" />
    <glyph glyph-name="video-camera" unicode="&#xe6ba;" 
d="M795 719h-759q-15 0 -25.5 -10.5t-10.5 -25.5v-598q0 -15 10.5 -25.5t25.5 -10.5h759q15 0 25.5 10.5t10.5 25.5v0v173l131 -133q11 -11 26 -11q7 0 14 3q22 9 22 34v467q0 23 -22 34q-23 9 -39 -8l-131 -133v172q-1 15 -11.5 25.5t-25.5 10.5zM759 423v-302h-688v526
h688v-224zM952 530v-293l-121 122v48z" />
    <glyph glyph-name="visible" unicode="&#xe6bb;" 
d="M512 649q-70 0 -147 -25.5t-134.5 -58.5t-111 -73t-77 -61.5t-31.5 -29.5q-11 -11 -11 -25v-1q0 -15 11 -25q12 -13 32.5 -31.5t76 -60t111.5 -73.5t133.5 -57.5t147.5 -25.5t147 25t134.5 58.5t111 73t77 61t31.5 30.5q11 10 11 25t-11 26q-8 8 -31.5 29.5t-76.5 61.5
t-110.5 73t-135 58.5t-147.5 25.5zM512 174q-61 0 -128.5 22t-125.5 58t-97 64.5t-72 57.5q33 29 72 57.5t97 64.5t125.5 58t128.5 22t128.5 -22t125.5 -58t97 -64.5t72 -57.5q-33 -29 -72 -57.5t-97 -64.5t-125.5 -58t-128.5 -22zM383 376q0 -53 38 -91.5t92 -38.5v0
q54 0 92 38t38 92v0v0q0 54 -38 92t-92 38v0q-54 0 -92 -38.5t-38 -91.5zM570 376v0q0 -24 -17 -41t-41 -17v0v0q-24 0 -41 17t-17 41t17 41t41 17q24 -1 41 -17.5t17 -40.5v0z" />
    <glyph glyph-name="voice" unicode="&#xe6bc;" 
d="M512 198q102 0 174 72t72 174v208q0 101 -72 172.5t-174 71.5t-174 -71.5t-72 -172.5v-208q0 -102 72 -174t174 -72zM339 652q0 71 51 122t123 51t123 -51t51 -122v-185q0 -71 -51 -122t-123 -51t-123 51t-51 122v185v0zM865 444q0 15 -10.5 25.5t-26 10.5t-26 -10.5
t-10.5 -25.5q0 -116 -82 -197t-198 -81t-198 81t-82 197q0 15 -10.5 25.5t-26 10.5t-26 -10.5t-10.5 -25.5q0 -135 91 -235t226 -114v-151h-204q-15 0 -26 -10.5t-11 -25.5t11 -25.5t26 -10.5h465q15 0 25.5 10.5t10.5 25.5t-10.5 25.5t-25.5 10.5h-189v151q135 14 226 114
t91 235z" />
    <glyph glyph-name="zoom-out" unicode="&#xe6bd;" 
d="M398 896q-108 0 -200 -53.5t-145 -145t-53 -199.5t53 -200t145 -145t200 -53q144 0 255 92l309 -309q11 -11 26 -11t25.5 10.5t10.5 25.5t-11 26l-309 309q92 111 92 255q0 108 -53.5 199.5t-145 145t-199.5 53.5v0zM398 171q-89 0 -164 44t-119 119t-44 163.5t44 164
t119 119t163.5 43.5t164 -43.5t119 -119t43.5 -164t-43.5 -163.5t-119 -119t-163.5 -44v0zM633 534h-471q-15 0 -25.5 -10.5t-10.5 -25.5t10.5 -25.5t25.5 -10.5h471q16 0 26 10.5t10 25.5t-10 25.5t-26 10.5z" />
    <glyph glyph-name="zoom-in" unicode="&#xe6be;" 
d="M398 99q145 0 255 93l309 -309q11 -11 26 -11t25.5 10.5t10.5 25.5t-11 26l-309 309q93 111 93 255q0 108 -53.5 199.5t-145 145t-200.5 53.5q-107 0 -199 -53.5t-145.5 -145.5t-53.5 -199q0 -109 53.5 -200.5t145.5 -145t199 -53.5zM398 824q89 0 164 -44t118.5 -119
t43.5 -163q0 -89 -43.5 -164t-118.5 -118.5t-163.5 -43.5t-163.5 43.5t-119 118.5t-44 163.5t44 163.5t119 119t163 44v0zM362 262q0 -16 10.5 -26.5t25.5 -10.5h1q15 0 25.5 10.5t10.5 25.5v1v199h199h1q15 0 25.5 10.5t10.5 25.5v1v0q0 15 -10.5 25.5t-25.5 10.5h-1h-199
v199v1q0 15 -10.5 25.5t-25.5 10.5h-1v0q-15 0 -25.5 -10.5t-10.5 -25.5v-1v-199h-199h-1q-15 0 -25.5 -10.5t-10.5 -25.5v0q0 -16 10.5 -26.5t26.5 -10.5h199v-199v0z" />
    <glyph glyph-name="wifi" unicode="&#xe6bf;" 
d="M966.5 733q7.5 14 3 29t-17.5 22q-200 112 -430 112q-231 0 -432 -113q-14 -8 -18 -23t4 -28q11 -19 32 -19q9 0 19 4q183 103 395 103q211 0 393 -102q14 -7 29 -3t22.5 18zM817 492q21 0 32 19q8 13 4 28.5t-18 22.5q-146 83 -313 83v0q-69 0 -160.5 -24t-151.5 -58
q-14 -8 -18 -23t3.5 -28.5t22.5 -17.5t29 4q126 72 275 72q61 0 142 -21.5t134 -51.5q8 -5 19 -5v0zM722.5 295q7.5 14 3 29t-17.5 22q-87 48 -190 47t-189 -50q-13 -8 -17 -23t3 -29q11 -18 33 -18q10 0 18 5q69 40 152 40.5t153 -37.5q14 -8 29 -4t22.5 18zM386 8
q0 -56 40 -96t96 -40t96 40t40 96t-40 95.5t-96 39.5t-96 -39.5t-40 -95.5zM582 7.5q0 -24.5 -17.5 -42t-42.5 -17.5t-42.5 17.5t-17.5 42t17.5 42.5t42.5 18t42.5 -18t17.5 -42.5z" />
    <glyph glyph-name="video" unicode="&#xe6c0;" 
d="M36 -128h952q15 0 25.5 10.5t10.5 25.5v952q0 15 -10.5 25.5t-25.5 10.5h-952q-15 0 -25.5 -10.5t-10.5 -25.5v-952q0 -15 10.5 -25.5t25.5 -10.5zM832 824h120v-166h-120v166zM832 586h120v-166h-121v166h1zM833 347h120v-165h-119v165h-1zM832 109h120v-166h-120v166z
M265 824h494v-404h-494v404v0zM265 347h494v-404h-494v404zM72 824h120v-166h-120v166v0zM72 586h120v-166h-120v166v0zM72 347h120v-165h-120v165v0zM72 109h120v-166h-120v166v0z" />
    <glyph glyph-name="volume" unicode="&#xe6c1;" 
d="M36 109h238q15 0 25.5 10.5t10.5 25.5v13l420 -280q8 -6 20 -6q8 0 17 4q19 11 19 32v952q0 22 -19 32q-18 10 -37 -2l-420 -280v12q0 15 -10.5 25.5t-25.5 10.5h-238q-15 0 -25.5 -10.5t-10.5 -25.5v-477q0 -14 11 -25t25 -11zM310 523l404 269v-818l-404 270v279v0z
M72 586h166v-404h-166v404zM988 658q-15 0 -25.5 -10.5t-10.5 -25.5v-477q0 -15 10.5 -25.5t25.5 -10.5t25.5 10.5t10.5 25.5v477q0 14 -10.5 25t-25.5 11v0z" />
    <glyph glyph-name="sun" unicode="&#xe6c2;" 
d="M512 137q102 0 174.5 72.5t72.5 174.5t-72.5 174.5t-174.5 72.5t-174.5 -72.5t-72.5 -174.5t72.5 -174.5t174.5 -72.5zM512 560q73 0 124.5 -51.5t51.5 -124.5t-51.5 -124.5t-124.5 -51.5t-124.5 51.5t-51.5 124.5t51.5 124.5t124.5 51.5zM548 746v114q0 15 -10.5 25.5
t-25.5 10.5t-25.5 -10.5t-10.5 -25.5v-114q0 -15 10.5 -25.5t25.5 -10.5t25.5 10.5t10.5 25.5zM476 22v-114q0 -15 10.5 -25.5t25.5 -10.5t25.5 10.5t10.5 25.5v114q0 15 -10.5 25.5t-25.5 10.5t-25.5 -10.5t-10.5 -25.5zM794 614l80 81q11 10 11 25t-11 26t-26 11t-25 -11
l-81 -80q-10 -11 -10 -26t10.5 -25.5t25.5 -10.5t26 10zM150 22q11 -11 26 -11t25 11l81 80q10 11 10 26t-10.5 25.5t-25.5 10.5t-26 -10l-80 -81q-11 -10 -11 -25t11 -26zM1024 384q0 15 -10.5 25.5t-25.5 10.5h-114q-15 0 -25.5 -10.5t-10.5 -25.5t10.5 -25.5t25.5 -10.5
h114q15 0 25.5 10.5t10.5 25.5zM36 348h114q15 0 25.5 10.5t10.5 25.5t-10.5 25.5t-25.5 10.5h-114q-15 0 -25.5 -10.5t-10.5 -25.5t10.5 -25.5t25.5 -10.5zM848 11q15 0 26 11t11 26t-11 25l-80 81q-11 10 -26 10t-25.5 -10.5t-10.5 -25.5t10 -26l81 -80q10 -11 25 -11z
M281.5 614.5q10.5 10.5 10.5 25.5t-10 26l-81 80q-10 11 -25 11t-26 -11t-11 -26t11 -25l80 -81q11 -10 26 -10t25.5 10.5z" />
  </font>
</defs>
</svg>
